Ffmpeg Color Space Bt 709

Movie name : 2012. And civilised people sense it. 709) output profile. 2020 version, making a BT. Not true, you can encode RGB with x264 (it's stored as YUV, but decoded as RGB). 709 colorspace and tag it so: ffmpeg -loglevel verbose -f lavfi -r 1 -i testsrc=s=1280x720 -vf scale=out_color_matrix=bt709,format=yuv420p -colorspace bt709 -c:v libvpx-vp9 -lossless 1 -t 10 -y bt709. 601 on encode - here I mean, if you working with old + new hardware; usually, you choose only one standard for your production, no matter what size is, this all depends on your target device - where content will be viewed). It is also well accepted by open-source software such as the GIMP, and is used in proprietary and open graphics file formats such as SVG. Included in these standards is the Rec. sRGB & Rec. Similar to filter_threads but used for -filter_complex graphs only. 709 (otherwise known as Rec. 709 and your monitor supports BT. Media Encoder Beige. 709, first approved in 1990 and often referred to as Rec. Using D3D11, D3D9, MPC and MPV I get 4 different values for the red. This color space is identical to the sRGB color space and covers 35. Due to the influence of the linear part of the function, the median is close to 2. Special smart software is then needed to expand the colors back to where they should be when opening the file. Colors within the BT. In contrast, BT. For the time being however, this ffmpeg induced via this behavior is preferred by an order of a magnitude. The smallest triangle is the "Rec. 709 color gamut. It is more important to get the contrast right than using P3 colors, you are allowed to use Rec. My works surprise and disturb them because they see in them the savage that I can't repress. Dec 13, 2011 · If you have a decent CPU and plenty of disk space to spare for your recordings, you can retain the full color quality of pcsx2's output by recording in RGB with a lossless codec that supports RGB. Not true, you can encode RGB with x264 (it's stored as YUV, but decoded as RGB). sRGB is a higher color space and more accurate Luma/Chroma; or brightness to darkness greyscale and color spectrum. Similar to how the Rec. 1 - Why are the NTSC and PAL color coefficients different than BT. 709 and your monitor supports BT. That means stepping up to BT. Ask Question like ProRes still takes most of the space, though. I noticed lately that recording HD and FullHD video in prores and dnxhd through FFMPEG/vMix does not conform to the specs. 2020 color space. 709 The normative reference is ITU-R BT. QuickTime typically doesn't meddle with gamma if the source is already in some component color space. The LX-UH1 supports 100% of Rec. By continuing to use Pastebin, you agree to our use of cookies as described in the Cookies Policy. Examples of standard RGB color spaces are ISO RGB, sRGB, ROMM RGB, Adobe RGB 98, Apple RGB, and video RGB spaces (NTSC, EBU, ITU-R BT. 2020 it looks washed out - I've tried playing around with the color gamut settings on the TV (normal, wide etc. 709 (HDTV) color space standard. Mastering Display Color Volume Metadata Supporting High Luminance and Wide Color Gamut Images › Specifies mastering display primaries, white point, and min/max luminance › HLG10 = HLG HDR transfer function + Rec. 709-5 specification? AR# 67185 LogiCORE IP RGB to YCrCb Color-Space Converter (RGB2YCrCb) v7. I will try to sum it all up here, if possible There are six ways to handle color space, given YUV input. 709 colour space, as used in many HD videos, has been talked about before on this list, but I have failed to understand if its possible for FFmpeg to be commanded to do-the-right-thing when converting to/from BT. 709-5] section 4) and is described by the following two formulas:". Therefore, the choice of the RGB color space simplifies the architecture and design of the system. color_range. 709 color space output and BT. Uses the same color primaries as Rec 709, but with a specific gamma profile. 709 Color Space. The UHD Alliance, a consortium of broadcasters, vendors and Hollywood studios, in their most recent guidelines, specify that UHDTV content masters and distribution channels shall use Rec. In the process, I think we’ll find that “wide gamut” colors – colors that fall outside the BT. Chromatic aberration and color fringing are minimized even when utilizing lens shift, resulting in precise projection of 4K content. (sRGB uses ITU BT Rec. 006 Stream size : 847 MiB (97%) Language : English Color primaries : BT. Human vision sees the world with lots of dynamic range and a wide range of colors. This program helps you to prepare 8-bit footages from a consumer or professional video camera, digicams and V-DSLR when you want to get your movie into a professional commercial cinema color grading in 10-bit. In any case, I'm a newb with FRAPS and FFMPEG. 709/sRGB primaries to the rendering primaries, after applying a single curve on all three RGB channels. 709, which as we know are similar for all practical purposes. There are billions of displays all over the world designed for these color spaces. com Acolyte Color Research, 35 Mickens Bend, West Henrietta, NY USA 14586 ABSTRACT Six different methods for white-balancing digital images were compared in terms of their ability to produce white-balanced. 16 Chapter 3: Color Spaces The RGB color space is the most prevalent choice for computer graphics because color displays use red, green, and blue to create the desired color. 1 - Why are the NTSC and PAL color coefficients different than BT. 709, standardizes the format of High Definition Television (HDTV). In the process, I think we’ll find that “wide gamut” colors – colors that fall outside the BT. RGB, XYZ, and CMYK). All HDTVs should be able to 100% of the Rec. The added support for ProRes closed a big gap for me as I quite often get exports in ProRes and need to transcode it into something more lossy like H. 709? Where does ffmpeg get the. 264 encoder: "3. For example, a BT. Included in these standards is the Rec. Movie name : 2012. 709 video to DCDM X'Y'Z' I have done this color space workflow using Fraunhofer Easydcp Creator on film festival video material intended for cinema projection. 2020 color space output. 709 colorspace and tag it so: ffmpeg -loglevel verbose -f lavfi -r 1 -i testsrc=s=1280x720 -vf scale=out_color_matrix=bt709,format=yuv420p -colorspace bt709 -c:v libvpx-vp9 -lossless 1 -t 10 -y bt709. New HDR color mode improves brightness 20% and increases dynamic range when using Intelligent Aperture with HDR content. ) but this has no. Dec 13, 2011 · If you have a decent CPU and plenty of disk space to spare for your recordings, you can retain the full color quality of pcsx2's output by recording in RGB with a lossless codec that supports RGB. Set the color description fields in the stream (see AV1 section 6. For example, on one project the highest audio bitrate it will produce is 232Kb/s (according to FFmpeg -i) if you set it any higher than 192k. But this removes all the dynamic. ag, download. ffmpg in -color_primaries bt709 -color_trc bt709 -colorspace bt709 out will tag the output video as using bt. Note that the -vf video filter option actually transforms while the other 709 flags just indicate what flags will be included in the container. 2020, but I don't know where the difference tween that an 709 is found. On the other side i had problems. 709 colorspace and tag it so: ffmpeg -loglevel verbose -f lavfi -r 1 -i testsrc=s=1280x720 -vf scale=out_color_matrix=bt709,format=yuv420p -colorspace bt709 -c:v libvpx-vp9 -lossless 1 -t 10 -y bt709. Netflix on the Shield looks the same as the Netflix app on the TV's OS), but obviously I can't output any HDR content If I set the Shield color space to BT. Unlike 1D LUTs, which mainly adjust luminance, 3D LUTs control hue, saturation, and brightness of each RGB color. 601 versus BT. 1 day ago · rgb与yuv的变换公式如下: yuv(256 级别) 可以从8位 rgb 直接计算: y = 0. As there is no one RGB color space that is suitable for all imaging needs, factors to consider when choosing an RGB color space are discussed. HandBrake uses bt. The video was interpreted using FFMPEG twice: 1st run - full luma range 601 matrix; Second run - full luma range 709 matrix. Состав Фред Дёрст (англ. 601 to SMPTE-240M check the "Color. I try it with ffmpeg, but it doesn't work. Netflix on the Shield looks the same as the Netflix app on the TV's OS), but obviously I can't output any HDR content If I set the Shield color space to BT. A good color space is the space I need for my photo !. Note that this is often implemented with a linear segment, but in that case the exponent is corrected to stay aligned with a gamma 2. Dec 02, 2019 · Free watch WWE-AEW UFC- watch Wrestling online live streaming HD 720p - 1080p updating every Hour. 709 color gamut in Acer Digital displays. 709 and the green filter is only there when you look this on RGB display? All displays are RGB displays, but sRGB is primarily used on monitors. So, I guess I should admit that this is an iTunes download, and yes there is no DRM on this file. 709 primaries, the same as in studio monitors and HDTV, a transfer function (gamma curve) typical of CRTs, and a viewing environment designed to match. 709 Matrix coefficients : BT. 709 and sRGB. 709 colour gamut, which is shown above. 709 for those of us that may be rather more familiar with the name than the science behind it. DonTorrent: Descargar estrenos de series y películas torrent en Español. For a bit of context, I am trying to use the H. 709, SMPTE240M and FCC. 709 input transform can't undo the non-standard effects of your camera's color processing. 2020 Color Space which is an RGB color space that has a color gamut that is wider than almost all other RGB color spaces. The term for the legal color space is "gamut;" any color that is outside of this defined color space is termed "out of gamut. As I mentioned in the other thread, Dish is either stripping the HDR data out of the 4K signal entirely or is doing an HDR -> SDR conversion. With recent ffmpeg builds you can change HEVC/H. 709, standardises the format of high definition television with a 16:9 (widescreen) aspect ratio. 2; note that this cannot be set for streams using BT. 709 primaries, sRGB transfer characteristic and identity (RGB) matrix coefficients). CAPTURE_COLOR_SPACE_ADOBERGB Adobe RGB color space, similar to sRGB but with extended. It is a quite subjectively pleasing color gamut and it is established worldwide. We test whether a TV has an option to enable a wider color gamut, and how much of the DCI-P3 and Rec. FFmpeg Codecs Documentation Table of Contents. Oct 24, 2019 · HandBrake, Youtube, Vimeo or any other current video transcoder by default expects Rec. 470 SD video color space typically used. If, on the other hand, you’re creating a movie for high-definition television, you should choose an HDTV (Rec. Still in coverage of the CIE 1931 color space the Rec. Note that this is often implemented with a linear segment, but in that case the exponent is corrected to stay aligned with a gamma 2. The Logarist BT. k CGColor Space ITUR _2020 _PQ _EOTF The recommendation of the International Telecommunication Union (ITU) Radiocommunication sector for the BT. V color primaries (from 1 to 10) (default unspecified) bt709 ED. Aug 18, 2014 · You get built-in calibration software that lets you recalibrate each of the six color-space presets and also lets you create a custom color profile using your own color, white point, gamma, and. 0 ('Six Voices') 64bit built on Feb 28 2015 23:39:33 2018-10-01 22:13:57 / mkvmerge v7. 2, same as most kinds of HDTV. I often create h264/prores copies of XYZ Digital Cinema Packages via ffmpeg in a film archive. to include the audio part into the mp4/mov with ffmpeg so It would be great if you could extend the command with the right seetings for pcm audio. org The sRGB color space (standard Red Green Blue) is an RGB color space created jointly by Hewlett-Packard and Microsoft for use on the Internet. How to use -vf colorspace to convert SMPTE431/432 to bt709? Hi, I noticed recently that Vittorio Giovara added SMPTE 431/432 support to the colorspace video filter. Jan 29, 2017 · RedShark Replay: Phil Rhodes unpacks Rec. ということで Color Space = Linear 時、内部レンダリングのカラーフォーマットは "色域 = BT. Without getting into much detail , 2 main color spaces exist noways for video: BT. ffmpeg-filters - FFmpeg filters bt709 BT. 709 Transfer characteristics: BT. So it would be good to know which value is. I can't post full frames or anything identifying of the content, but here are some color swatches. 601 ITU-R BT. We use cookies for various purposes including analytics. 2020 color space. Therefore many applications, using RGB-YCbCr data conversions defined by ITU-T 601 [1], and ITU-T 709 [2], do not follow the strict rulles of ITU-T recommendations, and utilize full data range to 0 - 255, or sometimes to 16 - 255. With Final Cut Pro 10. S-Gamut defines an even wider color space than that of the previous two. I use iDealshare VideoGo to convert MOV to WebM or convert WebM to MOV. Here is an ffmpeg command line I have used to add color flags to a video which didn't have them before. loadPixelLookupTable( filename ) Loads a color space lookup table and returns the index to the color space. 601 on standard resolutions BT. 709 [27] and SMPTE 170M are the most likely to be in common use. 709 colour spaces? When playing Resident Evil 7 on PC players have the choice between sRGB and BT. Nov 24, 2013 · A library for colormodels and spaces, correct color-conversions and color-difference calculation. Hey, thanks for the reply. All HDTVs should be able to 100% of the Rec. The filter includes a Reveal slider so that the original image and a version interpreted through the selected color matrix may be shown side-by-side for review. Edit : I removed the -f option to let ffmpeg detect automatically. 709 video is darker. DCI-P3 is a popular high dynamic range (HDR) RGB color space that was introduced in 2007 by SMPTE and features a color gamut much wider than Rec. sRGB is a modified version of BT. 601 2654 Removed VS2003 project. 709) look correct. DonTorrent: Descargar estrenos de series y películas torrent en Español. 10 bit color eliminates banding 8 bit color shows banding Color Accurate Professional Desktop. - ffmpeg -t option can now be used for inputs, to limit the duration of data read from an input file - incomplete Voxware MetaSound decoder - read EXIF metadata from JPEG - DVB teletext decoder - phase filter ported from libmpcodecs - w3fdif filter - Opus support in Matroska. Jun 16, 2012 · Although, the exponent in the power function of sRGB transfer function is 2. 709 for yuv<->rgb. 709, a D65 white point, and an EOTF which conforms to Recommendation ITU-R BT. pdf), Text File (. 2020: Set to be the standard in Ultra HD, just like BT. xvYCC 601 and xvYCC 709 can be converted to Rec. Therefore, you should see the temperature curve on the image pass through the white part of the image, and the cross that marks the white point, at 6502 kelvins. Could you tell me what the flags are to tell ffmpeg the right color space and quantization range. 709 Transfer characteristics : BT. [LPY+16] Taoran Lu, Fangjun Pu, Peng Yin, Tao Chen, Walt Husak, Jaclyn Pytlarz, Robin Atkins, Jan Froehlich, and Guan-Ming Su. Sep 10, 2016 · For other types of subsampling - it is better to always follow the standard (720p -> BT. However, within the larger scope of contemporary program origination, the Rec BT. 709 primaries and a gamma of 2. Color space : YUV Chroma subsampling : 4:2:0 Bit depth : 8 bits Scan type : Progressive Bits/(Pixel*Frame) : 0. A color space is a specific implementation of a color model that defines a particular set of colors. 709 'bt470m' BT. 709 colorspace and tag it so: ffmpeg -loglevel verbose -f lavfi -r 1 -i testsrc=s=1280x720 -vf scale=out_color_matrix=bt2020,format=yuv420p -colorspace bt2020 -c:v libvpx-vp9 -lossless 1 -t 10 -y bt2020. getPixelConversionRGB( colorspace, direction, &lookupTable ) Return the address of a color conversion function for RGB. Similarly, the "color depth" would be defined as number of bits to represent each dot or pixel, and normally in the PS4 it is 48 bits per pixel (16 bits for each primary value of RGB). For instance, you just want to cut some screen records made on mobile devices, such as tablets or mobile phones. 709 primaries, sRGB transfer characteristic and identity (RGB) matrix coefficients). At current the below options are only available and is very limited as we are testing files with some clients and there auto QC systems are flagging them with. Color space : YUV BT. From time to time, you may get into weird digital video territory quite unexpectedly. Also is included tints LUTs to give a color atmosphere without affecting other color settings. 2020 covers a much larger area and would further see its very own matrix set for YUV/Y′UV. Well known formats are assuming BT. The ITU Radiocommunication Assembly has put out new recommended standards for Ultra HD TVs. YCrCb (or YCbCr) Color Space The YCbCr color space was developed as part of the ITU-R BT. Jul 10, 2016 · Color Rendering & Android: Why All OEMs Must Offer an sRGB Mode. eng-MIRCrew NO FOUND ONLY ORIGINAL RELEASE My release is always in double track audio italian and Original audio. Tvheadend - Bug #754 Audio. Aug 18, 2013 · Working Color Space – Rec. For example, after creating a movie in an HDTV (Rec. sYCC and AdobeYCC should use as defaults limited range for CE formats and full range for IT formats. All HDTVs should be able to 100% of the Rec. 13 Space Truckin' 14 Smoke on the Water 15 Hush 16 Black Night Deep Purple, One of my favs going way back! Got the seats I like at the venue 5 minutes from my house! Great video and very good sound on this. If I set the Shield color space to BT. 709 before it - Rec. Detail Improvement. Ask Question like ProRes still takes most of the space, though. 601/jpeg bt. > Except that I was already working in 709 space. 709, Adobe RGB and ProPhoto RGB (All in linear space) That’s nine combinations. The term for the legal color space is "gamut;" any color that is outside of this defined color space is termed "out of gamut. A good color space is the space I need for my photo !. Sep 16, 2017 · Hello, I am trying to transcode GH5 6K 10 Bit - 2X anamorphic video, to something sane for the average person to playback. 2020 compatible) and displays HDR content with high contrast and bright vivid images. 3 and later, you can choose between the traditional Rec. Color space : YUV Chroma subsampling : 4:2:0 Bit depth : 8 bits Scan type : Progressive Bits/(Pixel*Frame) : 1. Using D3D11, D3D9, MPC and MPV I get 4 different values for the red. 709 Transfer characteristics: BT. 709, P3, or any color space within the gamut envelope of BT. 5%) color spaces. 709 color space is almost identical to Rec. 601 and we will convert it. The triangles shown indicate the smallest and largest of the three color gamuts mentioned above. Introduction FFmpeg is very powerful and mature software to record, convert and stream. ) but this has no. Some discussion was here: 2e3c119#commitcomment-25700502 -color_primaries &lt;int&gt; ED. The XIP-3901-DC application features broadcast-quality. 1 day ago · rgb与yuv的变换公式如下: yuv(256 级别) 可以从8位 rgb 直接计算: y = 0. As of 2007, sRGB is by far the most commonly used color space for computer displays. I have been experiencing in. Color space conversion is defined by the custom color matrix in NvMedia2DBlitParameters. Morning all, does anyone have experience with the OSMC on Pi 3 with regards h265 playback? I'd be keen to know if the new CPU improves playback, which on my Pi2 is somewhat choppy at best. 0, it makes sense to divide the [RGB. At current the below options are only available and is very limited as we are testing files with some clients and there auto QC systems are flagging them with. Due to the influence of the linear part of the function, the median is close to 2. You can always work in a "none" color space in AE (good) or the ACES space (better, but might be overkill) and choose a 16 or 32 bit composition and then choose your output file format. Included in these standards is the Rec. This applies the inverse of the gamma specified by ITU-R BT. Underlying Media Frameworks. After prepping the BT. Maybe there's a default or guessed color space that happens to be wrong. 2020, which in turn means 10- or 12-bit deep color. 709 Color Gamut with Reference Colors. The triangles shown indicate the smallest and largest of the three color gamuts mentioned above. 709-5 specification? AR# 67184 LogiCORE IP YCrCb to RGB Color-Space Converter (YCrCb2RGB) v7. 4 Rec 709 (video) Images encoded with the Rec. flags, otherwise defaulting to BT. EIA608 VITC Viewer. Computer Vision Toolbox™ software uses a D65 white point, which is specified in Recommendation ITU-R BT. 2020 color space output. Jun 16, 2012 · Although, the exponent in the power function of sRGB transfer function is 2. Name UK Snooker Championship 2019 Last 16 Part 1 2019 12 04 720p iP WEB-DL AAC2 0 H264-BTN: Description: General Unique ID : 89574931173774830540314777607345012526. 709 • Color space conversion can be implemented in several ways. A color space is a way to represent colors. 709 TV), inherent backward compatibility is not expected, thus a down-conversion step must be taken at some point in the supply chain. ffmpeg -i MyMovie. RGB means each pixel of your video is stored with a value for the red component, one for green and one for blue. Aug 20, 2016 · ITU-R Recommendation BT. The Foundational Frameworks. (And I mean color space as in gamut, not color encoding) Dynamic range disabled does not mean YCbCr, but RGB limited. Whenever capturing 4K or UHD content, this is the recommended color space. OBM-X Series; OBM-U Series; OBM-W Series; OBM-P Series; OBM-N Series; OBM-N170G/N240G QC Monitor; OBM-H Series; OBM-R Series; OBM-Q Series; OBM-L Series. 709 colorspace uses a 2. 5, which results in the decoding gamma of 2. Odpovědnost nese vždy uploader souboru. 1 for DRIVE PX 2 References by 1. As you can see, it covers barely a fraction of the visible wavelengths. 82Gbps, but only with the default 8-bit BT. Log coloring can be disabled setting the environment variable AV_LOG_FORCE_NOCOLOR or NO_COLOR, or can be forced setting the environment variable AV_LOG_FORCE_COLOR. 709 color space conversion, when colors land outside of the BT. 709 unspecifie. 709 (for "Recommendation number 709"). sRGB – the color space standard for computer monitors and devices. Returns the color space of the given color space name. raw -c:v copy test. What is a color space. 709), 1990. 709 and sRGB. For other types of subsampling - it is better to always follow the standard (720p -> BT. Color Matrix. Still in coverage of the CIE 1931 color space the Rec. org by Petrakeas2, "BT. 709 color spaces with 10-bit color for more than a billion hues. So it's not over-compensating, it's compensating for a different color space than the one your videos are meant for. Post anywhere. 5, which results in the decoding gamma of 2. The accuracy of the colors can then be calculated using the 1976 CIE Uniform Chromaticity color space and compared to the eye's sensitivity to color. 709 primaries, sRGB transfer characteristic and identity (RGB) matrix coefficients). Questo differisce notevolmente dai personal computer, che usano 0 per il nero e 255 per il bianco. 709 e tutti i sistemi derivati da essa (per esempio l'MPEG-2 e quindi l'ATSC e il DVD) usano una codifica a 8 bit con un valore di 16 per il nero e 235 per il bianco. 601 is auto detected according to video resolution. If you mix some Red pain with some blue pain, you will get a Violet color (it is called additive colors). These are the same characteristics later standardized in ITU-R BT. ffmpeg Color conversion - 709 to 601. 709 standard, which has finite color information to represent pixels on large displays such as HDTV. May 26, 2012 · BT. Due to the influence of the linear part of the function, the median is close to 2. 709, standardizes the format of High Definition Television (HDTV). viewing a stereoscopic movie with FFmpeg "stereo3d" filter If this is your first visit, be sure to check out the FAQ by clicking the link above. It is suitable for the simultaneous operation of the BT. Colour Science for Python. 2020) defines several aspects of UHDTV as supported resolutions, frame rates, color space, color depth, etc. Colorspace support in FFmpeg What is colorspace? Why should we care? Colorspace describes how an array of pixel values should be displayed on the screen. 709 standard versus the future standard BT. Apr 13, 2018 · Its best to work in a color space that is at least equivalent to the one you will output to or preferably one that is more spacious. Name UK Snooker Championship Highlights 2019 Third Round Part 2 2019 12 04 720p iP WEB-DL AAC2 0 H 264-BTN: Description: General. use FFmpeg to apply a standard dynamic range to Hybrid Log-Gamma conversion with a change in colour gamut from ITU-R BT. 1 Design Description The Color space conversion IP block contains two modules — RGB to YCbCr and YCbCr to RGB. 118 Stream size : 463 MiB (92%) Color range : Limited Color primaries : BT. 2020 color space + 10-bit sample depth - No metadata. Browse and buy exceptional, royalty-free stock clips, handpicked by the best. 709's white point, Illuminant D65. 2020 it looks washed out - I've tried playing around with the color gamut settings on the TV (normal, wide etc. 4K60 4:4:4 runs at 17. So we try to multiplex the stream new in a mxf container. We'll begin by looking at the two most common video standards in use today- ITU-R BT. The black triangle shows the BT. The CalMAN Color Volume Analysis workflow provides two different metrics to analyze the volume of a display’s color reproduction range, CIE L*a*b* and ICtCp. HDR is an entirely different format, not just a display technology. 2100 – defines various aspects of high dynamic range (HDR) video such as display resolution (HDTV and UHDTV), bit depth, Bit Values (Files), frame rate, chroma subsampling, color space ST 2084. Color SpaceConversion Refer to the following table. Keywords: Color Standards, Color Communication,. RGB, XYZ, and CMYK). the 601 to 709 conversion is for ffmpeg so it retain correct chroma values so the resulting YUV has the same RGB values when decoded (I would skip that if the colors will not shift). Oct 09, 2017 · A team led by Vikram, a ruthless, no-nonsense encounter cop, is on the hunt to capture or kill Vedha, a dreaded gangster. 709 to ITU-R BT. Some discussion was here: 2e3c119#commitcomment-25700502 -color_primaries &lt;int&gt; ED. 709 • Color space conversion can be implemented in several ways. 709 when it should be BT. 709 and the green filter is only there when you look this on RGB display? All displays are RGB displays, but sRGB is primarily used on monitors. Optimal display of Log video on Rec. 1361, IEC 61966-2-4, SMPTE RP177 I thought that perhaps the newest ffmpeg would include that functionality,but it's just a. The best known are : sRGB, Adobe RGB and ProPhoto in photo and Rec 709 and DCI-P3 in video. org by Petrakeas2, "BT. 4 August 25, 2017 page: 4/86 8.